Download
Sachika Misawa

Black Panther 2018 NEW PROPER HD TS X264 MP3 128Kbps LLG torrent download

seeders: 410
leechers: 194
updated:
Added ago by LifeLongg ***** in Movies
Torrent Downloaded 10 times.
Info Hash: 3F6710DC471EFE64C4C6F60EFC5362C62CDF6072


Torrent Files

Black Panther 2018 NEW PROPER HD-TS X264 MP3 128Kbps LLG (Size: 1.2 GB)
  Black Panther 2018 NEW PROPER HD-TS X264 MP3 128Kbps LLG 1.2 GB

Torrent Description







******************************Thumbnail:**********************



******************************Screenshots:********************

Screenshot 1

Screenshot 2

Screenshot 3

Screenshot 4

Screenshot 5

Screenshot 6

Screenshot 7

Screenshot 8

Screenshot 9

Screenshot 0

**************************************************************

Complete name : Black.Panther.2018.NEW.PROPER.HD-TS.X264.MP3.128Kbps.LLG.mp4
Format : MPEG-4
Format profile : Base Media
Codec ID : isom (isom/iso2/avc1/mp41)
File size : 1.16 GiB
Duration : 2 h 4 min
Overall bit rate : 1 332 kb/s
Writing application : Lavf57.56.101

Video
ID : 1
Format : AVC
Format/Info : Advanced Video Codec
Format profile : [email protected]
Format settings : CABAC / 4 Ref Frames
Format settings, CABAC : Yes
Format settings, RefFrames : 4 frames
Codec ID : avc1
Codec ID/Info : Advanced Video Coding
Duration : 2 h 4 min
Bit rate : 1 200 kb/s
Width : 720 pixels
Height : 320 pixels
Display aspect ratio : 2.25:1
Frame rate mode : Constant
Frame rate : 23.976 (23976/1000) FPS
Color space : YUV
Chroma subsampling : 4:2:0
Bit depth : 8 bits
Scan type : Progressive
Bits/(Pixel*Frame) : 0.217
Stream size : 1.04 GiB (90%)


Audio
ID : 2
Format : MPEG Audio
Format version : Version 1
Format profile : Layer 3
Format settings : Joint stereo / MS Stereo
Codec ID : mp4a-6B
Duration : 2 h 4 min
Bit rate mode : Constant
Bit rate : 128 kb/s
Channel(s) : 2 channels
Sampling rate : 44.1 kHz
Compression mode : Lossy
Stream size : 114 MiB (10%)
Writing library : LAME3.99.5
Default : Yes
Alternate group : 1



Related Torrents

torrent name size age seed leech
867.13 MB 1 minute 111 230
2.6 MB 2 minutes 769 265
3.2 GB 2 minutes 82 235
2.1 MB 2 minutes 614 249
5.0 GB 2 minutes 503 415

Sharing Widget


Download torrent
1.2 GB
seeders:1214
leechers:386
Black Panther 2018 NEW PROPER HD-TS X264 MP3 128Kbps LLG



To share this torrent use the code below and insert it into comments, status messages, forum posts or your signature.

Torrent: Black Panther 2018 NEW PROPER HD-TS X264 MP3 128Kbps LLG

Comments

Latest Searches